When The Bough Breaks 2016 1080p BluRay x264 BLOW[PRiME]



File Information
Name When The Bough Breaks 2016 1080p BluRay x264 BLOW[PRiME]
Category Movies - Horror
Health 202 Seeders | 556 Leechers
Language English
Size 8.88GB
Number of Files 9
Uploader
Added 2016-12-14 01:19:52
Torrent Download



When.The.Bough.Breaks.2016.1080p.BluRay.x264-BLOW[PRiME]
ImDb: http://www.imdb.com/title/tt1389139Complete name                            : blow-when.the.bough.breaks.2016.1080p.bluray.x264[PRiME].mkv
Format                                   : Matroska
Format version                           : Version 4 / Version 2
File size                                : 8.74 GiB
Duration                                 : 1 h 46 min
Overall bit rate                         : 11.7 Mb/s
Encoded date                             : UTC 2016-12-13 23:42:53
Writing application                      : mkvmerge v8.5.2 (\'DiAMOND\') 64bit
Writing library                          : libebml v1.3.3 + libmatroska v1.4.4
Video
ID                                       : 1
Format                                   : AVC
Format/Info                              : Advanced Video Codec
Format profile                           : [emailprotected]/* <![CDATA[ */!function(t,e,r,n,c,a,p){try{t=document.currentScript||function(){for(t=document.getElementsByTagName('script'),e=t.length;e--;)if(t[e].getAttribute('data-cfhash'))return t[e]}();if(t&&(c=t.previousSibling)){p=t.parentNode;if(a=c.getAttribute('data-cfemail')){for(e='',r='0x'+a.substr(0,2)|0,n=2;a.length-n;n+=2)e+='%'+('0'+('0x'+a.substr(n,2)^r).toString(16)).slice(-2);p.replaceChild(document.createTextNode(decodeURIComponent(e)),c)}p.removeChild(t)}}catch(u){}}()/* ]]> */
Format settings, CABAC                   : Yes
Format settings, ReFrames                : 5 frames
Codec ID                                 : V_MPEG4/ISO/AVC
Duration                                 : 1 h 46 min
Bit rate                                 : 10.2 Mb/s
Width                                    : 1 920 pixels
Height                                   : 808 pixels
Display aspect ratio                     : 2.40:1
Frame rate mode                          : Constant
Frame rate                               : 23.976 (24000/1001) FPS
Color space                              : YUV
Chroma subsampling                       : 4:2:0
Bit depth                                : 8 bits
Scan type                                : Progressive
Bits/(Pixel*Frame)                       : 0.274
Stream size                              : 7.44 GiB (85%)
Writing library                          : x264 core 148 r2721 72d53ab
Encoding settings                        : cabac=1 / ref=5 / deblock=1:0:0 / analyse=0x3:0x113 / me=umh / subme=8 / psy=1 / psy_rd=1.00:0.00 / mixed_ref=1 / me_range=16 / chroma_me=1 / trellis=1 / 8x8dct=1 / cqm=0 / deadzone=21,11 / fast_pskip=1 / chroma_qp_offset=-2 / threads=24 / lookahead_threads=4 / sliced_threads=0 / nr=0 / decimate=1 / interlaced=0 / bluray_compat=0 / constrained_intra=0 / bframes=3 / b_pyramid=2 / b_adapt=1 / b_bias=0 / direct=3 / weightb=1 / open_gop=0 / weightp=2 / keyint=240 / keyint_min=24 / scenecut=40 / intra_refresh=0 / rc_lookahead=50 / rc=2pass / mbtree=1 / bitrate=10209 / ratetol=1.0 / qcomp=0.60 / qpmin=0 / qpmax=69 / qpstep=4 / cplxblur=20.0 / qblur=0.5 / ip_ratio=1.40 / aq=1:1.00
Language                                 : English
Default                                  : Yes
Forced                                   : No
Audio
ID                                       : 2
Format                                   : DTS
Format/Info                              : Digital Theater Systems
Mode                                     : 16
Format settings, Endianness              : Big
Codec ID                                 : A_DTS
Duration                                 : 1 h 46 min
Bit rate mode                            : Constant
Bit rate                                 : 1 509 kb/s
Channel(s)                               : 6 channels
Channel positions                        : Front: L C R, Side: L R, LFE
Sampling rate                            : 48.0 kHz
Frame rate                               : 93.750 FPS (512 spf)
Bit depth                                : 24 bits
Compression mode                         : Lossy
Stream size                              : 1.13 GiB (13%)
Language                                 : English
Default                                  : Yes
Forced                                   : No
Text #1
ID                                       : 3
Format                                   : UTF-8
Codec ID                                 : S_TEXT/UTF8
Codec ID/Info                            : UTF-8 Plain Text
Title                                    : English regular
Language                                 : English
Default                                  : No
Forced                                   : No
Text #2
ID                                       : 4
Format                                   : UTF-8
Codec ID                                 : S_TEXT/UTF8
Codec ID/Info                            : UTF-8 Plain Text
Title                                    : English SDH
Language                                 : English
Default                                  : No
Forced                                   : No
Menu
00:00:00.000                             : en:00:00:00.000
00:04:09.875                             : en:00:04:09.875
00:10:35.593                             : en:00:10:35.593
00:17:12.031                             : en:00:17:12.031
00:22:09.370                             : en:00:22:09.370
00:28:51.730                             : en:00:28:51.730
00:35:56.363                             : en:00:35:56.363
00:42:13.531                             : en:00:42:13.531
00:47:50.576                             : en:00:47:50.576
00:54:46.533                             : en:00:54:46.533
01:01:50.373                             : en:01:01:50.373
01:07:14.697                             : en:01:07:14.697
01:16:23.412                             : en:01:16:23.412
01:25:08.437                             : en:01:25:08.437
01:34:19.237                             : en:01:34:19.237
01:40:26.520                             : en:01:40:26.520Click Image To View Full SizeClick To View ScreenshotClick To View ScreenshotClick To View Screenshot