Vienna Empire, Dynasty and Dream S01E01



File Information
Name Vienna Empire, Dynasty and Dream S01E01
Category TV -
Health 14 Seeders | 29 Leechers
Language English
Size 0.99GB
Number of Files 5
Uploader
Added 2016-12-09 10:29:16
Torrent Download

Vienna Empire, Dynasty and Dream S01E01 Vienna was the capital of the Habsburg dynasty and home to the Holy Roman Emperors. From here, they dominated middle Europe for nearly 1,000 years. In this series, historian Simon Sebag Montefiore describes how the Habsburgs transformed Vienna into a multi-national city of music, culture and ideas. Napoleon, Hitler, Mozart, Strauss, Freud, Stalin and Klimt all played their part. In this first episode, we follow the Habsburgs' rise to power and discover how Vienna marked Europe's front line in the struggle to defend both Christendom from the Ottomans and the Catholic Church from the Protestant revolutionaries that plotted to destroy it. (with soft subtitles) First broadcast: 8 December 2016 Duration: 1 hour Media info:- General Format : MPEG-4 Format profile : Base Media Codec ID : isom (isom/iso2/avc1/mp41) File size : 1 014 MiB Duration : 59mn 2s Overall bit rate mode : Variable Overall bit rate : 2 402 Kbps Writing application : Lavf57.25.100 Video ID : 1 Format : AVC Format/Info : Advanced Video Codec Format profile : [emailprotected]/* */ Format settings, CABAC : Yes Format settings, ReFrames : 2 frames Codec ID : avc1 Codec ID/Info : Advanced Video Coding Duration : 59mn 2s Bit rate mode : Variable Bit rate : 2 303 Kbps Maximum bit rate : 3 500 Kbps Width : 1 280 pixels Height : 720 pixels Display aspect ratio : 16:9 Frame rate mode : Constant Frame rate : 25.000 fps Color space : YUV Chroma subsampling : 4:2:0 Bit depth : 8 bits Scan type : Progressive Bits/(Pixel*Frame) : 0.100 Stream size : 973 MiB (96%) Audio ID : 2 Format : AAC Format/Info : Advanced Audio Codec Format profile : LC Codec ID : 40 Duration : 59mn 2s Bit rate mode : Constant Bit rate : 93.5 Kbps Channel(s) : 2 channels Channel positions : Front: L R Sampling rate : 48.0 KHz Frame rate : 46.875 fps (1024 spf) Compression mode : Lossy Stream size : 39.5 MiB (4%)