Veeram The Powerman 2016 Hindi Web Rip x264 AAC 1 14Gb By TeriKasam mkv



File Information
Name Veeram The Powerman 2016 Hindi Web Rip x264 AAC 1 14Gb By TeriKasam mkv
Category Movies - Movies
Health 211 Seeders | 289 Leechers
Language ---
Size 1.14GB
Number of Files 1
Uploader
Added 2016-07-14 00:25:16
Torrent Download

Veeram The Powerman (2016) Hindi Web-Rip x264 AAC 1 14Gb By TeriKasam mkv







General
Unique ID : 210678273433088362908432838363608277769 (0x9E7F28D7DA6C49EDB3CA265350F86309)
Complete name : E:\Veeram The Powerman (2016) Hindi Web-Rip x264 AAC 1.14Gb...By....TeriKasam.mkv
Format : Matroska
Format version : Version 4 / Version 2
File size : 1.14 GiB
Duration : 2h 29mn
Overall bit rate : 1 093 Kbps
Encoded date : UTC 2016-07-14 00:14:34
Writing application : mkvmerge v9.2.0 ('Photograph') 32bit
Writing library : libebml v1.3.3 + libmatroska v1.4.4

Video
ID : 1
Format : AVC
Format/Info : Advanced Video Codec
Format profile : [email protected]/* <![CDATA[ */!function(t,e,r,n,c,a,p){try{t=document.currentScript||function(){for(t=document.getElementsByTagName('script'),e=t.length;e--;)if(t[e].getAttribute('data-cfhash'))return t[e]}();if(t&&(c=t.previousSibling)){p=t.parentNode;if(a=c.getAttribute('data-cfemail')){for(e='',r='0x'+a.substr(0,2)|0,n=2;a.length-n;n+=2)e+='%'+('0'+('0x'+a.substr(n,2)^r).toString(16)).slice(-2);p.replaceChild(document.createTextNode(decodeURIComponent(e)),c)}p.removeChild(t)}}catch(u){}}()/* ]]> */
Format settings, CABAC : Yes
Format settings, ReFrames : 3 frames
Codec ID : V_MPEG4/ISO/AVC
Duration : 2h 29mn
Bit rate : 965 Kbps
Width : 854 pixels
Height : 480 pixels
Display aspect ratio : 16:9
Frame rate mode : Constant
Frame rate : 25.000 fps
Color space : YUV
Chroma subsampling : 4:2:0
Bit depth : 8 bits
Scan type : Progressive
Bits/(Pixel*Frame) : 0.094
Stream size : 1.01 GiB (88%)
Default : Yes
Forced : No
Color range : Limited
Color primaries : BT.709
Transfer characteristics : BT.709
Matrix coefficients : BT.709

Audio
ID : 2
Format : AAC
Format/Info : Advanced Audio Codec
Format profile : LC
Codec ID : A_AAC
Duration : 2h 29mn
Bit rate : 126 Kbps
Channel(s) : 2 channels
Channel positions : Front: L R
Sampling rate : 44.1 KHz
Frame rate : 43.066 fps (1024 spf)
Compression mode : Lossy
Delay relative to video : -40ms
Stream size : 135 MiB (11%)
Language : Hindi
Default : Yes
Forced : No



SCREENSHOTS
Click On Image