The Thinning 2016 HDRip XviD AC3 EVO[PRiME]



File Information
Name The Thinning 2016 HDRip XviD AC3 EVO[PRiME]
Category Movies - Thriller
Health --- Seeders | --- Leechers
Language English
Size 1.40GB
Number of Files 6
Uploader
Added 2016-12-12 00:30:31
Torrent Download



The.Thinning.2016.HDRip.XviD.AC3-EVO[PRiME]
ImDb: http://www.imdb.com/title/tt5254868Complete name                            : The.Thinning.2016.HDRip.XviD.AC3-EVO[PRiME].avi
Format                                   : AVI
Format/Info                              : Audio Video Interleave
Format profile                           : OpenDML
Format settings                          : rec
File size                                : 1.38 GiB
Duration                                 : 1 h 23 min
Overall bit rate                         : 2 354 kb/s
Writing application                      : AVI-Mux GUI 1.17.8.3, Feb 16 201019:42:50
Video
ID                                       : 0
Format                                   : MPEG-4 Visual
Format profile                           : Advanced [emailprotected]/* <![CDATA[ */!function(t,e,r,n,c,a,p){try{t=document.currentScript||function(){for(t=document.getElementsByTagName('script'),e=t.length;e--;)if(t[e].getAttribute('data-cfhash'))return t[e]}();if(t&&(c=t.previousSibling)){p=t.parentNode;if(a=c.getAttribute('data-cfemail')){for(e='',r='0x'+a.substr(0,2)|0,n=2;a.length-n;n+=2)e+='%'+('0'+('0x'+a.substr(n,2)^r).toString(16)).slice(-2);p.replaceChild(document.createTextNode(decodeURIComponent(e)),c)}p.removeChild(t)}}catch(u){}}()/* ]]> */
Format settings, BVOP                    : 2
Format settings, QPel                    : No
Format settings, GMC                     : No warppoints
Format settings, Matrix                  : Default (H.263)
Muxing mode                              : Packed bitstream
Codec ID                                 : XVID
Codec ID/Hint                            : XviD
Duration                                 : 1 h 23 min
Bit rate                                 : 1 901 kb/s
Width                                    : 720 pixels
Height                                   : 304 pixels
Display aspect ratio                     : 2.35:1
Frame rate                               : 23.976 (23976/1000) FPS
Color space                              : YUV
Chroma subsampling                       : 4:2:0
Bit depth                                : 8 bits
Scan type                                : Progressive
Compression mode                         : Lossy
Bits/(Pixel*Frame)                       : 0.362
Stream size                              : 1.11 GiB (81%)
Writing library                          : XviD 66
Audio
ID                                       : 1
Format                                   : AC-3
Format/Info                              : Audio Coding 3
Mode extension                           : CM (complete main)
Format settings, Endianness              : Big
Codec ID                                 : 2000
Duration                                 : 1 h 23 min
Bit rate mode                            : Constant
Bit rate                                 : 448 kb/s
Channel(s)                               : 2 channels
Channel positions                        : Front: L R
Sampling rate                            : 48.0 kHz
Frame rate                               : 31.250 FPS (1536 spf)
Compression mode                         : Lossy
Stream size                              : 268 MiB (19%)
Alignment                                : Aligned on interleaves
Interleave, duration                     : 64  ms (1.53 video frames)
Interleave, preload duration             : 192  ms
Title                                    : ac3Click Image To View Full SizeClick To View ScreenshotClick To View ScreenshotClick To View Screenshot