The Small World of Sammy Lee 1963 1080p BluRay x264 BiPOLAR[PRiME]



File Information
Name The Small World of Sammy Lee 1963 1080p BluRay x264 BiPOLAR[PRiME]
Category Movies - Drama
Health --- Seeders | --- Leechers
Language English
Size 8.76GB
Number of Files 8
Uploader
Added 2016-12-12 06:50:50
Torrent Download



The.Small.World.of.Sammy.Lee.1963.1080p.BluRay.x264-BiPOLAR[PRiME]
ImDb: http://www.imdb.com/title/tt0052205Complete name                            : the.small.world.of.sammy.lee.1963.1080p.bluray.x264-bipolar[PRiME].mkv
Format                                   : Matroska
Format version                           : Version 4 / Version 2
File size                                : 8.75 GiB
Duration                                 : 1 h 47 min
Overall bit rate mode                    : Variable
Overall bit rate                         : 11.7 Mb/s
Encoded date                             : UTC 2016-12-12 05:06:12
Writing application                      : mkvmerge v8.3.0 (\'Over the Horizon\') 64bit
Writing library                          : libebml v1.3.1 + libmatroska v1.4.2
Video
ID                                       : 1
Format                                   : AVC
Format/Info                              : Advanced Video Codec
Format profile                           : [emailprotected]/* <![CDATA[ */!function(t,e,r,n,c,a,p){try{t=document.currentScript||function(){for(t=document.getElementsByTagName('script'),e=t.length;e--;)if(t[e].getAttribute('data-cfhash'))return t[e]}();if(t&&(c=t.previousSibling)){p=t.parentNode;if(a=c.getAttribute('data-cfemail')){for(e='',r='0x'+a.substr(0,2)|0,n=2;a.length-n;n+=2)e+='%'+('0'+('0x'+a.substr(n,2)^r).toString(16)).slice(-2);p.replaceChild(document.createTextNode(decodeURIComponent(e)),c)}p.removeChild(t)}}catch(u){}}()/* ]]> */
Format settings, CABAC                   : Yes
Format settings, ReFrames                : 4 frames
Codec ID                                 : V_MPEG4/ISO/AVC
Duration                                 : 1 h 47 min
Bit rate                                 : 11.0 Mb/s
Width                                    : 1 904 pixels
Height                                   : 1 080 pixels
Display aspect ratio                     : 16:9
Frame rate mode                          : Constant
Frame rate                               : 24.000 FPS
Color space                              : YUV
Chroma subsampling                       : 4:2:0
Bit depth                                : 8 bits
Scan type                                : Progressive
Bits/(Pixel*Frame)                       : 0.224
Stream size                              : 8.28 GiB (95%)
Writing library                          : x264 core 148 r2705 3f5ed56
Encoding settings                        : cabac=1 / ref=4 / deblock=1:0:0 / analyse=0x3:0x133 / me=umh / subme=9 / psy=1 / psy_rd=1.00:0.00 / mixed_ref=1 / me_range=16 / chroma_me=1 / trellis=1 / 8x8dct=1 / cqm=0 / deadzone=21,11 / fast_pskip=0 / chroma_qp_offset=-2 / threads=34 / lookahead_threads=2 / sliced_threads=0 / nr=0 / decimate=1 / interlaced=0 / bluray_compat=0 / constrained_intra=0 / bframes=3 / b_pyramid=2 / b_adapt=2 / b_bias=0 / direct=3 / weightb=1 / open_gop=0 / weightp=2 / keyint=250 / keyint_min=24 / scenecut=40 / intra_refresh=0 / rc_lookahead=50 / rc=2pass / mbtree=1 / bitrate=11041 / ratetol=1.0 / qcomp=0.60 / qpmin=0 / qpmax=69 / qpstep=4 / cplxblur=20.0 / qblur=0.5 / ip_ratio=1.40 / aq=1:1.00
Language                                 : English
Default                                  : Yes
Forced                                   : No
Audio
ID                                       : 2
Format                                   : FLAC
Format/Info                              : Free Lossless Audio Codec
Codec ID                                 : A_FLAC
Duration                                 : 1 h 47 min
Bit rate mode                            : Variable
Bit rate                                 : 621 kb/s
Channel(s)                               : 2 channels
Channel positions                        : Front: L R
Sampling rate                            : 48.0 kHz
Frame rate                               : 11.719 FPS (4096 spf)
Bit depth                                : 24 bits
Stream size                              : 477 MiB (5%)
Writing library                          : libFLAC 1.2.1 (UTC 2007-09-17)
Language                                 : English
Default                                  : Yes
Forced                                   : No
Menu
00:00:00.000                             : en:00:00:00.000
00:13:11.375                             : en:00:13:11.375
00:27:35.167                             : en:00:27:35.167
00:44:39.333                             : en:00:44:39.333
00:51:04.750                             : en:00:51:04.750
01:08:33.500                             : en:01:08:33.500
01:18:04.708                             : en:01:18:04.708
01:31:48.125                             : en:01:31:48.125Click Image To View Full SizeClick To View ScreenshotClick To View ScreenshotClick To View Screenshot