The Revenant 2015 MULTi 720p BluRay x264 AC3 5 1 LeRalouf torrent



File Information
Name The Revenant 2015 MULTi 720p BluRay x264 AC3 5 1 LeRalouf torrent
Category Movies - Adventure
Health 4 Seeders | --- Leechers
Language English
Size 4.00GB
Number of Files 4
Uploader
Added 2016-12-02 08:41:22
Torrent Download

The Revenant Multi 720p BluRay x264-LeRalouf, COMPLETE Code: General Unique ID : 99200880191555057127885827248566969636 (0x4AA16502589A05814DD2D838326E2524) Format : Matroska Format version : Version 4 / Version 2 File size : 4.00 GiB Duration : 2h 36mn Overall bit rate : 3 661 Kbps Encoded date : UTC 2016-12-02 08:15:14 Writing application : mkvmerge v9.6.0 ('Slave To Your Mind') 64bit Writing library : libebml v1.3.4 + libmatroska v1.4.5 Video ID : 1 Format : AVC Format/Info : Advanced Video Codec Format profile : [emailprotected]/* */ Format settings, CABAC : Yes Format settings, ReFrames : 9 frames Codec ID : V_MPEG4/ISO/AVC Duration : 2h 36mn Bit rate : 2 500 Kbps Width : 1 280 pixels Height : 720 pixels Display aspect ratio : 16:9 Frame rate mode : Constant Frame rate : 23.976 fps Color space : YUV Chroma subsampling : 4:2:0 Bit depth : 8 bits Scan type : Progressive Bits/(Pixel*Frame) : 0.113 Stream size : 2.73 GiB (68%) Writing library : x264 core 142 r2389 956c8d8 Encoding settings : cabac=1 / ref=9 / deblock=1:-2:-2 / analyse=0x3:0x133 / me=umh / subme=11 / psy=1 / psy_rd=1,00:0,00 / mixed_ref=1 / me_range=24 / chroma_me=1 / trellis=2 / 8x8dct=1 / cqm=0 / deadzone=21,11 / fast_pskip=1 / chroma_qp_offset=-2 / threads=12 / lookahead_threads=1 / sliced_threads=0 / nr=0 / decimate=1 / interlaced=0 / bluray_compat=0 / constrained_intra=0 / bframes=5 / b_pyramid=2 / b_adapt=2 / b_bias=0 / direct=3 / weightb=1 / open_gop=0 / weightp=2 / keyint=250 / keyint_min=23 / scenecut=40 / intra_refresh=0 / rc_lookahead=60 / rc=crf / mbtree=1 / crf=19,0 / qcomp=0,60 / qpmin=0 / qpmax=69 / qpstep=4 / ip_ratio=1,40 / aq=1:1,00 Default : Yes Forced : No Color primaries : BT.709 Transfer characteristics : BT.709 Matrix coefficients : BT.709 DURATION : 02:36:21.372000000 NUMBER_OF_FRAMES : 224928 NUMBER_OF_BYTES : 3003017699 _STATISTICS_WRITING_APP : mkvmerge v9.6.0 ('Slave To Your Mind') 64bit _STATISTICS_WRITING_DATE_UTC : 2016-12-02 08:15:14 _STATISTICS_TAGS : BPS DURATION NUMBER_OF_FRAMES NUMBER_OF_BYTES Audio #1 ID : 2 Format : AC-3 Format/Info : Audio Coding 3 Mode extension : CM (complete main) Format settings, Endianness : Big Codec ID : A_AC3 Duration : 2h 36mn Bit rate mode : Constant Bit rate : 640 Kbps Channel(s) : 6 channels Channel positions : Front: L C R, Side: L R, LFE Sampling rate : 48.0 KHz Bit depth : 16 bits Compression mode : Lossy Delay relative to video : -5ms Stream size : 716 MiB (17%) Language : English Default : Yes Forced : No DURATION : 02:36:21.376000000 NUMBER_OF_FRAMES : 293168 NUMBER_OF_BYTES : 750510080 _STATISTICS_WRITING_APP : mkvmerge v9.6.0 ('Slave To Your Mind') 64bit _STATISTICS_WRITING_DATE_UTC : 2016-12-02 08:15:14 _STATISTICS_TAGS : BPS DURATION NUMBER_OF_FRAMES NUMBER_OF_BYTES Audio #2 ID : 3 Format : AC-3 Format/Info : Audio Coding 3 Mode extension : CM (complete main) Format settings, Endianness : Big Codec ID : A_AC3 Duration : 2h 36mn Bit rate mode : Constant Bit rate : 448 Kbps Channel(s) : 6 channels Channel positions : Front: L C R, Side: L R, LFE Sampling rate : 48.0 KHz Bit depth : 16 bits Compression mode : Lossy Stream size : 501 MiB (12%) Language : French Default : No Forced : No DURATION : 02:36:21.376000000 NUMBER_OF_FRAMES : 293168 NUMBER_OF_BYTES : 525357056 _STATISTICS_WRITING_APP : mkvmerge v9.6.0 ('Slave To Your Mind') 64bit _STATISTICS_WRITING_DATE_UTC : 2016-12-02 08:15:14 _STATISTICS_TAGS : BPS DURATION NUMBER_OF_FRAMES NUMBER_OF_BYTES Text #1 ID : 4 Format : PGS Muxing mode : zlib Codec ID : S_HDMV/PGS Codec ID/Info : The same subtitle format used on BDs/HD-DVDs Title : Forced Language : English Default : Yes Forced : No DURATION : 02:25:18.752000000 NUMBER_OF_FRAMES : 2533 NUMBER_OF_BYTES : 7423333 _STATISTICS_WRITING_APP : mkvmerge v9.6.0 ('Slave To Your Mind') 64bit _STATISTICS_WRITING_DATE_UTC : 2016-12-02 08:15:14 _STATISTICS_TAGS : BPS DURATION NUMBER_OF_FRAMES NUMBER_OF_BYTES Text #2 ID : 5 Format : PGS Muxing mode : zlib Codec ID : S_HDMV/PGS Codec ID/Info : The same subtitle format used on BDs/HD-DVDs Language : English Default : No Forced : No DURATION : 02:20:59.034000000 NUMBER_OF_FRAMES : 254 NUMBER_OF_BYTES : 636354 _STATISTICS_WRITING_APP : mkvmerge v9.6.0 ('Slave To Your Mind') 64bit _STATISTICS_WRITING_DATE_UTC : 2016-12-02 08:15:14 _STATISTICS_TAGS : BPS DURATION NUMBER_OF_FRAMES NUMBER_OF_BYTES Text #3 ID : 6 Format : PGS Muxing mode : zlib Codec ID : S_HDMV/PGS Codec ID/Info : The same subtitle format used on BDs/HD-DVDs Language : French Default : No Forced : No DURATION : 02:35:07.424000000 NUMBER_OF_FRAMES : 1615 NUMBER_OF_BYTES : 3865020 _STATISTICS_WRITING_APP : mkvmerge v9.6.0 ('Slave To Your Mind') 64bit _STATISTICS_WRITING_DATE_UTC : 2016-12-02 08:15:14 _STATISTICS_TAGS : BPS DURATION NUMBER_OF_FRAMES NUMBER_OF_BYTES Menu 00:00:00.000 : :Chapter 1 00:05:04.846 : :Chapter 2 00:07:58.311 : :Chapter 3 00:13:18.965 : :Chapter 4 00:21:10.686 : :Chapter 5 00:28:21.658 : :Chapter 6 00:37:07.767 : :Chapter 7 00:44:00.388 : :Chapter 8 00:48:14.975 : :Chapter 9 00:51:42.266 : :Chapter 10 00:56:51.074 : :Chapter 11 00:59:50.754 : :Chapter 12 01:03:31.766 : :Chapter 13 01:11:52.475 : :Chapter 14 01:16:36.175 : :Chapter 15 01:21:22.378 : :Chapter 16 01:28:31.139 : :Chapter 17 01:37:30.011 : :Chapter 18 01:48:44.685 : :Chapter 19 01:53:08.782 : :Chapter 20 01:59:05.972 : :Chapter 21 02:02:56.703 : :Chapter 22 02:15:45.304 : :Chapter 23 02:22:51.063 : :Chapter 24 The Revenant, 720p. English and french audio tracks included. English (forced and full) and french subtitles included, both .srt and muxed (straight from BluRay). Sources: BluRay Screenshots: