The Hollars (2016) (1080p Bluray x265 HEVC 10bit AAC 5 1 Tigole) [UTR]



File Information
Name The Hollars (2016) (1080p Bluray x265 HEVC 10bit AAC 5 1 Tigole) [UTR]
Category Movies - Adventure
Health 33 Seeders | 65 Leechers
Language English
Size 2.70GB
Number of Files 5
Uploader
Added 2016-12-11 00:44:04
Torrent Download




The Hollars 2016 in 1080p, encoded with x265 in HEVC and AAC 5.1 English, with subtitles!
Encoded using the time consuming 2 pass, 10 bit color at 3250 kbps, from a Blu-ray source, for the highest quality possible.


Media InformationGeneral
Format                                   : Matroska
Format version                           : Version 4 / Version 2
File size                                : 2.22 GiB
Duration                                 : 1 h 28 min
Overall bit rate                         : 3 589 kb/s
Encoded date                             : UTC 2016-12-09 10:05:37
Writing application                      : mkvmerge v9.4.0 (\'Knurl\') 64bit
Writing library                          : libebml v1.3.4 + libmatroska v1.4.5Video
ID                                       : 1
Format                                   : HEVC
Format/Info                              : High Efficiency Video Coding
Format profile                           : Main [emailprotected]/* <![CDATA[ */!function(t,e,r,n,c,a,p){try{t=document.currentScript||function(){for(t=document.getElementsByTagName('script'),e=t.length;e--;)if(t[e].getAttribute('data-cfhash'))return t[e]}();if(t&&(c=t.previousSibling)){p=t.parentNode;if(a=c.getAttribute('data-cfemail')){for(e='',r='0x'+a.substr(0,2)|0,n=2;a.length-n;n+=2)e+='%'+('0'+('0x'+a.substr(n,2)^r).toString(16)).slice(-2);p.replaceChild(document.createTextNode(decodeURIComponent(e)),c)}p.removeChild(t)}}catch(u){}}()/* ]]> */@Main
Codec ID                                 : V_MPEGH/ISO/HEVC
Duration                                 : 1 h 28 min
Bit rate                                 : 3 239 kb/s
Width                                    : 1 920 pixels
Height                                   : 1 040 pixels
Display aspect ratio                     : 1.85:1
Frame rate mode                          : Constant
Frame rate                               : 23.976 (24000/1001) FPS
Color space                              : YUV
Chroma subsampling                       : 4:2:0
Bit depth                                : 10 bits
Bits/(Pixel*Frame)                       : 0.068
Stream size                              : 2.00 GiB (90%)
Writing library                          : x265 2.1+59-a895b6344a82:[Windows][GCC 6.2.0][64 bit] 10bit
Encoding settings                        : cpuid=1173503 / frame-threads=3 / numa-pools=8 / wpp / no-pmode / no-pme / no-psnr / no-ssim / log-level=2 / input-csp=1 / input-res=1920x1040 / interlace=0 / total-frames=127368 / level-idc=0 / high-tier=1 / uhd-bd=0 / ref=3 / no-allow-non-conformance / no-repeat-headers / annexb / no-aud / no-hrd / info / hash=0 / no-temporal-layers / open-gop / min-keyint=23 / keyint=250 / bframes=4 / b-adapt=2 / b-pyramid / bframe-bias=0 / rc-lookahead=20 / lookahead-slices=6 / scenecut=40 / no-intra-refresh / ctu=64 / min-cu-size=8 / no-rect / no-amp / max-tu-size=32 / tu-inter-depth=1 / tu-intra-depth=1 / limit-tu=0 / rdoq-level=0 / signhide / no-tskip / nr-intra=0 / nr-inter=0 / no-constrained-intra / strong-intra-smoothing / max-merge=2 / limit-refs=3 / no-limit-modes / me=1 / subme=2 / merange=57 / temporal-mvp / weightp / no-weightb / no-analyze-src-pics / deblock=0:0 / sao / no-sao-non-deblock / rd=3 / no-early-skip / rskip / no-fast-intra / no-tskip-fast / no-cu-lossless / no-b-intra / rdpenalty=0 / psy-rd=2.00 / psy-rdoq=0.00 / no-rd-refine / analysis-mode=0 / no-lossless / cbqpoffs=0 / crqpoffs=0 / rc=abr / bitrate=3239 / qcomp=0.60 / qpstep=4 / stats-write=0 / stats-read=2 / stats-file=E:\\The / Hollars / cplxblur=20.0 / qblur=0.5 / ipratio=1.40 / pbratio=1.30 / aq-mode=2 / aq-strength=1.00 / cutree / zone-count=0 / no-strict-cbr / qg-size=32 / no-rc-grain / qpmax=69 / qpmin=0 / sar=0 / overscan=0 / videoformat=5 / range=0 / colorprim=2 / transfer=2 / colormatrix=2 / chromaloc=0 / display-window=0 / max-cll=0,0 / min-luma=0 / max-luma=1023 / log2-max-poc-lsb=8 / vui-timing-info / vui-hrd-info / slices=1 / opt-qp-pps / opt-ref-list-length-pps / no-multi-pass-opt-rps / scenecut-bias=0.05
Default                                  : Yes
Forced                                   : NoAudio
ID                                       : 2
Format                                   : AAC
Format/Info                              : Advanced Audio Codec
Format profile                           : LC
Codec ID                                 : A_AAC
Duration                                 : 1 h 28 min
Bit rate                                 : 329 kb/s
Channel(s)                               : 6 channels
Channel positions                        : Front: L C R, Side: L R, LFE
Sampling rate                            : 48.0 kHz
Frame rate                               : 46.875 FPS (1024 spf)
Compression mode                         : Lossy
Delay relative to video                  : 20 ms
Stream size                              : 208 MiB (9%)
Language                                 : English
Default                                  : Yes
Forced                                   : NoText #1
ID                                       : 3
Format                                   : VobSub
Muxing mode                              : zlib
Codec ID                                 : S_VOBSUB
Codec ID/Info                            : Picture based subtitle format used on DVDs
Duration                                 : 1 h 24 min
Bit rate                                 : 8 073 b/s
Count of elements                        : 1625
Stream size                              : 4.87 MiB (0%)
Language                                 : English
Default                                  : No
Forced                                   : NoText #2
ID                                       : 4
Format                                   : VobSub
Muxing mode                              : zlib
Codec ID                                 : S_VOBSUB
Codec ID/Info                            : Picture based subtitle format used on DVDs
Duration                                 : 1 h 21 min
Bit rate                                 : 6 330 b/s
Count of elements                        : 1438
Stream size                              : 3.68 MiB (0%)
Language                                 : Chinese
Default                                  : No
Forced                                   : NoText #3
ID                                       : 5
Format                                   : VobSub
Muxing mode                              : zlib
Codec ID                                 : S_VOBSUB
Codec ID/Info                            : Picture based subtitle format used on DVDs
Duration                                 : 1 h 21 min
Bit rate                                 : 5 300 b/s
Count of elements                        : 1210
Stream size                              : 3.08 MiB (0%)
Language                                 : Japanese
Default                                  : No
Forced                                   : NoMenu
00:00:00.000                             : en:Chapter 01
00:05:11.060                             : en:Chapter 02
00:09:55.553                             : en:Chapter 03
00:15:11.702                             : en:Chapter 04
00:21:18.068                             : en:Chapter 05
00:26:25.375                             : en:Chapter 06
00:29:39.319                             : en:Chapter 07
00:33:52.697                             : en:Chapter 08
00:39:04.925                             : en:Chapter 09
00:42:08.734                             : en:Chapter 10
00:45:56.378                             : en:Chapter 11
00:51:21.203                             : en:Chapter 12
00:59:12.632                             : en:Chapter 13
01:08:20.763                             : en:Chapter 14
01:15:07.586                             : en:Chapter 15
01:17:49.081                             : en:Chapter 16Source InformationRelease : The.Hollars.2016.1080p.BluRay.AVC.DTS-HD.MA.5.1-FGT
Complete name                            : Hollars_t02.mkv
File size                                : 19.4 GiB
Duration                                 : 1 h 28 min
Overall bit rate mode                    : Variable
Overall bit rate                         : 31.3 Mb/s