The Ellen DeGeneres Show 2016 12 05 720p HDTV x264 ALTEREGO[PRiME]



File Information
Name The Ellen DeGeneres Show 2016 12 05 720p HDTV x264 ALTEREGO[PRiME]
Category TV - Other
Health --- Seeders | --- Leechers
Language English
Size 1.52GB
Number of Files 5
Uploader
Added 2016-12-09 01:37:57
Torrent Download

The.Ellen.DeGeneres.Show.2016.12.05.720p.HDTV.x264-ALTEREGO[PRiME]Complete name : The.Ellen.DeGeneres.Show.2016.12.05.720p.HDTV.x264-ALTEREGO[PRiME].mkv Format : Matroska Format version : Version 4 / Version 2 File size : 1.52 GiB Duration : 39 min 44 s Overall bit rate : 5 491 kb/s Encoded date : UTC 2016-12-08 04:36:00 Writing application : mkvmerge v9.4.2 (\'So High\') 64bit Writing library : libebml v1.3.4 + libmatroska v1.4.5 Video ID : 1 Format : AVC Format/Info : Advanced Video Codec Format profile : [emailprotected]/* */ Format settings, CABAC : Yes Format settings, ReFrames : 5 frames Codec ID : V_MPEG4/ISO/AVC Duration : 39 min 44 s Bit rate : 5 103 kb/s Width : 1 280 pixels Height : 720 pixels Display aspect ratio : 16:9 Frame rate mode : Constant Frame rate : 59.940 (60000/1001) FPS Color space : YUV Chroma subsampling : 4:2:0 Bit depth : 8 bits Scan type : Progressive Bits/(Pixel*Frame) : 0.092 Stream size : 1.42 GiB (93%) Writing library : x264 core 148 r2721 72d53ab Encoding settings : cabac=1 / ref=5 / deblock=1:0:0 / analyse=0x3:0x133 / me=umh / subme=8 / psy=1 / psy_rd=1.00:0.00 / mixed_ref=1 / me_range=16 / chroma_me=1 / trellis=2 / 8x8dct=1 / cqm=0 / deadzone=21,11 / fast_pskip=1 / chroma_qp_offset=-2 / threads=18 / lookahead_threads=3 / sliced_threads=0 / nr=0 / decimate=1 / interlaced=0 / bluray_compat=0 / constrained_intra=0 / bframes=3 / b_pyramid=2 / b_adapt=1 / b_bias=0 / direct=3 / weightb=1 / open_gop=0 / weightp=2 / keyint=599 / keyint_min=59 / scenecut=40 / intra_refresh=0 / rc_lookahead=50 / rc=crf / mbtree=1 / crf=18.0 / qcomp=0.60 / qpmin=0 / qpmax=69 / qpstep=4 / ip_ratio=1.40 / aq=1:1.00 Language : English Default : Yes Forced : No Color range : Limited Matrix coefficients : BT.709 Audio ID : 2 Format : AC-3 Format/Info : Audio Coding 3 Mode extension : CM (complete main) Format settings, Endianness : Big Codec ID : A_AC3 Duration : 39 min 44 s Bit rate mode : Constant Bit rate : 384 kb/s Channel(s) : 6 channels Channel positions : Front: L C R, Side: L R, LFE Sampling rate : 48.0 kHz Frame rate : 31.250 FPS (1536 spf) Compression mode : Lossy Delay relative to video : 30 ms Stream size : 109 MiB (7%) Default : Yes Forced : NoClick Image To View Full SizeClick To View ScreenshotClick To View ScreenshotClick To View Screenshot