The Accountant 2016 720p HC KORSUB HDRip AAC 2CH x265 HEVC GunGravE[PRiME] torrent



File Information
Name The Accountant 2016 720p HC KORSUB HDRip AAC 2CH x265 HEVC GunGravE[PRiME] torrent
Category Movies - Action
Health 27 Seeders | 135 Leechers
Language English
Size 1.11GB
Number of Files 5
Uploader
Added 2016-12-04 05:43:28
Torrent Download

The.Accountant.2016.720p.HC.KORSUB.HDRip.AAC.2CH.x265.HEVC-GunGravE[PRiME] ImDb: http://www.imdb.com/title/tt2140479Complete name : The.Accountant.2016.720p.HC.KORSUB.HDRip.AAC.2CH.x265.HEVC-GunGravE[PRiME].mkv Format : Matroska Format version : Version 4 / Version 2 File size : 1.11 GiB Duration : 2 h 7 min Overall bit rate : 1 238 kb/s Encoded date : UTC 2016-12-03 13:53:02 Writing application : mkvmerge v9.5.0 (\'Quiet Fire\') 64bit Writing library : libebml v1.3.4 + libmatroska v1.4.5 Video ID : 1 Format : HEVC Format/Info : High Efficiency Video Coding Format profile : [emailprotected]/* */@Main Codec ID : V_MPEGH/ISO/HEVC Duration : 2 h 7 min Bit rate : 1 106 kb/s Width : 1 280 pixels Height : 536 pixels Display aspect ratio : 2.40:1 Frame rate mode : Constant Frame rate : 25.000 FPS Color space : YUV Chroma subsampling : 4:2:0 Bit depth : 8 bits Bits/(Pixel*Frame) : 0.065 Stream size : 1 012 MiB (89%) Writing library : x265 2.1+4-e919ca9dd504:[Linux][GCC 5.4.0][64 bit] 8bit Encoding settings : wpp / ctu=64 / min-cu-size=8 / max-tu-size=32 / tu-intra-depth=1 / tu-inter-depth=1 / me=1 / subme=2 / merange=57 / no-rect / no-amp / max-merge=2 / temporal-mvp / no-early-skip / rskip / rdpenalty=0 / no-tskip / no-tskip-fast / strong-intra-smoothing / no-lossless / no-cu-lossless / no-constrained-intra / no-fast-intra / open-gop / no-temporal-layers / interlace=0 / keyint=250 / min-keyint=25 / scenecut=40 / rc-lookahead=20 / lookahead-slices=0 / bframes=4 / bframe-bias=0 / b-adapt=2 / ref=3 / limit-refs=3 / no-limit-modes / weightp / no-weightb / aq-mode=1 / qg-size=32 / aq-strength=1.00 / cbqpoffs=0 / crqpoffs=0 / rd=3 / psy-rd=2.00 / rdoq-level=0 / psy-rdoq=0.00 / log2-max-poc-lsb=8 / no-rd-refine / signhide / deblock=0:0 / sao / no-sao-non-deblock / b-pyramid / cutree / no-intra-refresh / rc=abr / bitrate=1099 / qcomp=0.60 / qpmin=0 / qpmax=69 / qpstep=4 / ipratio=1.40 / pbratio=1.30 Default : Yes Forced : No Audio ID : 2 Format : AAC Format/Info : Advanced Audio Codec Format profile : LC Codec ID : A_AAC Duration : 2 h 7 min Bit rate : 129 kb/s Channel(s) : 2 channels Channel positions : Front: L R Sampling rate : 48.0 kHz Frame rate : 46.875 FPS (1024 spf) Compression mode : Lossy Stream size : 118 MiB (10%) Default : Yes Forced : NoClick Image To View Full SizeClick To View ScreenshotClick To View ScreenshotClick To View Screenshot