Return to Oz Nel fantastico mondo di Oz (1985) H264 Italian English Ac3 iCV MIRCrew



File Information
Name Return to Oz Nel fantastico mondo di Oz (1985) H264 Italian English Ac3 iCV MIRCrew
Category Movies - Action
Health 144 Seeders | 118 Leechers
Language English
Size 1.27GB
Number of Files 1
Uploader
Added 2016-12-10 14:47:14
Torrent Download

Return to Oz - Nel fantastico mondo di Oz (1985).H264.Italian.English.Ac3.iCV-MIRCrew
NO FOUND ONLY ORIGINAL RELEASE
My release is always in double track audio italian and Original audio
for select it use VLC or dvd player home
not use wmp
Nel fantastico mondo di Oz - Return to Oz (1985)
Titolo originale Return to Oz
Paese di produzione Stati Uniti d'America
Anno 1985
Durata 113 min
Genere fantastico
Regia Walter Murch
Soggetto L. Frank Baum (romanzi)
Sceneggiatura Gill Dennis, Walter Murch
Produttore Gary Kurtz
Casa di produzione Walt Disney Pictures
Fotografia Michael Ford
Effetti speciali Peter Davey, Michael Dawson, Ken Gittens
Musiche David Shire Herbert W. Spencer
Fairuza Balk: Dorothy Gale
Nicol Williamson: Dr. Worley/Re degli Gnomi
Jean Marsh: Infermiera Wilson/Mombi
Piper Laurie: Zia Emma
Matt Clark: Zio Henry
Thimothy M. Rose: Tik-Tok
Michael Sundin: Tik-Tok
Mark Wilson: Billina
Stewart Larange: Jack Testa di Zucca
Stephen Norrington: Gump
Justin Case: Spaventapasseri
Deep Roy: Boscaiolo di Latta
John Alexander: Leone codardo/Ruotante
Emma Ridley: Ozma
Pons Maar: Capo dei Ruotanti/Messaggero degli Gnomi
Sono passati diversi mesi dagli avvenimenti de Il Mago di Oz, e Dorothy Gale è malinconica per il fatto che continua a non fare altro che sognare la sua magica avventura, e che lo Zio Enrico e la Zia Emma non le credono. Preoccupati dal pensiero che la nipote abbia problemi mentali, gli zii decidono di portarla dal Dottor Worley, specializzato in cure con l'uso dell'elettroterapia..............
Dorothy, saved from a psychiatric experiment by a mysterious girl, is somehow called back to Oz when a vain witch and the Nome King destroy everything that makes the magical land beautiful. ............Hidden text
General
Unique ID                                : 30442814201681532903668478599820382236 (0x16E7129F7F70F0C9405CA293B17A901C)
Complete name                            : Nel fantastico mondo di Oz - Return to Oz (1985).H264.ita.eng.sub.ita.eng.iCV-MIRCrew.mkv
Format                                   : Matroska
Format version                           : Version 2
File size                                : 1.27 GiB
Duration                                 : 1h 49mn
Overall bit rate                         : 1 658 Kbps
Movie name                               : VISIT www.icv-crew.org
Encoded date                             : UTC 2016-08-08 01:33:17
Writing application                      : Lavf54.63.100
Writing library                          : Lavf54.63.100
COPYRIGHT                                : robbyrs
Video
ID                                       : 1
Format                                   : AVC
Format/Info                              : Advanced Video Codec
Format profile                           : [emailprotected]/* <![CDATA[ */!function(t,e,r,n,c,a,p){try{t=document.currentScript||function(){for(t=document.getElementsByTagName('script'),e=t.length;e--;)if(t[e].getAttribute('data-cfhash'))return t[e]}();if(t&&(c=t.previousSibling)){p=t.parentNode;if(a=c.getAttribute('data-cfemail')){for(e='',r='0x'+a.substr(0,2)|0,n=2;a.length-n;n+=2)e+='%'+('0'+('0x'+a.substr(n,2)^r).toString(16)).slice(-2);p.replaceChild(document.createTextNode(decodeURIComponent(e)),c)}p.removeChild(t)}}catch(u){}}()/* ]]> */
Format settings, CABAC                   : Yes
Format settings, ReFrames                : 2 frames
Codec ID                                 : V_MPEG4/ISO/AVC
Duration                                 : 1h 49mn
Bit rate                                 : 1 270 Kbps
Width                                    : 688 pixels
Height                                   : 372 pixels
Display aspect ratio                     : 16:9
Original display aspect ratio            : 16:9
Frame rate mode                          : Variable
Frame rate                               : 23.976 fps
Color space                              : YUV
Chroma subsampling                       : 4:2:0
Bit depth                                : 8 bits
Scan type                                : Progressive
Bits/(Pixel*Frame)                       : 0.207
Stream size                              : 976 MiB (75%)
Writing library                          : x264 core 130 r2273
Encoding settings                        : cabac=1 / ref=2 / deblock=1:0:0 / analyse=0x1:0x131 / me=hex / subme=7 / psy=1 / psy_rd=1.00:0.00 / mixed_ref=0 / me_range=16 / chroma_me=1 / trellis=1 / 8x8dct=0 / cqm=0 / deadzone=21,11 / fast_pskip=1 / chroma_qp_offset=-2 / threads=12 / lookahead_threads=2 / sliced_threads=0 / nr=0 / decimate=1 / interlaced=0 / bluray_compat=0 / constrained_intra=0 / bframes=3 / b_pyramid=0 / b_adapt=1 / b_bias=0 / direct=3 / weightb=1 / open_gop=0 / weightp=2 / keyint=230 / keyint_min=23 / scenecut=40 / intra_refresh=0 / rc_lookahead=40 / rc=2pass / mbtree=1 / bitrate=1270 / ratetol=1.0 / qcomp=0.60 / qpmin=10 / qpmax=69 / qpstep=4 / cplxblur=20.0 / qblur=0.5 / vbv_maxrate=24000 / vbv_bufsize=24000 / nal_hrd=none / ip_ratio=1.40 / aq=1:1.00
Language                                 : Italian
Default                                  : Yes
Forced                                   : No
DURATION                                 : 01:49:48.707000000
NUMBER_OF_FRAMES                         : 157971
NUMBER_OF_BYTES                          : 8400584519
_STATISTICS_WRITING_APP                  : mkvmerge v9.3.1 ('Mask Machine') 64bit
_STATISTICS_WRITING_DATE_UTC             : 2016-08-08 01:33:17
_STATISTICS_TAGS                         : BPS DURATION NUMBER_OF_FRAMES NUMBER_OF_BYTES
Audio #1
ID                                       : 2
Format                                   : AC-3
Format/Info                              : Audio Coding 3
Mode extension                           : CM (complete main)
Codec ID                                 : A_AC3
Duration                                 : 1h 49mn
Bit rate mode                            : Constant
Bit rate                                 : 192 Kbps
Channel(s)                               : 2 channels
Channel positions                        : Front: L R
Sampling rate                            : 48.0 KHz
Bit depth                                : 16 bits
Compression mode                         : Lossy
Delay relative to video                  : 1mn 5s
Stream size                              : 151 MiB (12%)
Language                                 : Italian
Default                                  : Yes
Forced                                   : No
DURATION                                 : 01:49:56.640000000
NUMBER_OF_FRAMES                         : 206145
NUMBER_OF_BYTES                          : 158319360
_STATISTICS_WRITING_APP                  : mkvmerge v9.3.1 ('Mask Machine') 64bit
_STATISTICS_WRITING_DATE_UTC             : 2016-08-08 01:33:17
_STATISTICS_TAGS                         : BPS DURATION NUMBER_OF_FRAMES NUMBER_OF_BYTES
Audio #2
ID                                       : 3
Format                                   : AC-3
Format/Info                              : Audio Coding 3
Mode extension                           : CM (complete main)
Codec ID                                 : A_AC3
Duration                                 : 1h 49mn
Bit rate mode                            : Constant
Bit rate                                 : 192 Kbps
Channel(s)                               : 2 channels
Channel positions                        : Front: L R
Sampling rate                            : 48.0 KHz
Bit depth                                : 16 bits
Compression mode                         : Lossy
Delay relative to video                  : 1mn 5s
Stream size                              : 151 MiB (12%)
Language                                 : English
Default                                  : No
Forced                                   : No
DURATION                                 : 01:49:56.629000000
NUMBER_OF_FRAMES                         : 618434
NUMBER_OF_BYTES                          : 1244289208
_STATISTICS_WRITING_APP                  : mkvmerge v9.3.1 ('Mask Machine') 64bit
_STATISTICS_WRITING_DATE_UTC             : 2016-08-08 01:33:17
_STATISTICS_TAGS                         : BPS DURATION NUMBER_OF_FRAMES NUMBER_OF_BYTES
Text #1
ID                                       : 4
Format                                   : UTF-8
Codec ID                                 : S_TEXT/UTF8
Codec ID/Info                            : UTF-8 Plain Text
Title                                    : Sub Forced
Language                                 : Italian
Default                                  : Yes
Forced                                   : Yes
DURATION                                 : 00:30:25.541000000
NUMBER_OF_FRAMES                         : 2
NUMBER_OF_BYTES                          : 45
_STATISTICS_WRITING_APP                  : mkvmerge v9.3.1 ('Mask Machine') 64bit
_STATISTICS_WRITING_DATE_UTC             : 2016-08-08 01:33:17
_STATISTICS_TAGS                         : BPS DURATION NUMBER_OF_FRAMES NUMBER_OF_BYTES
Text #2
ID                                       : 5
Format                                   : UTF-8
Codec ID                                 : S_TEXT/UTF8
Codec ID/Info                            : UTF-8 Plain Text
Title                                    : Sub Regular
Language                                 : Italian
Default                                  : No
Forced                                   : No
DURATION                                 : 01:45:08.429000000
NUMBER_OF_FRAMES                         : 926
NUMBER_OF_BYTES                          : 29206
_STATISTICS_WRITING_APP                  : mkvmerge v9.3.1 ('Mask Machine') 64bit
_STATISTICS_WRITING_DATE_UTC             : 2016-08-08 01:33:17
_STATISTICS_TAGS                         : BPS DURATION NUMBER_OF_FRAMES NUMBER_OF_BYTES
Text #3
ID                                       : 6
Format                                   : UTF-8
Codec ID                                 : S_TEXT/UTF8
Codec ID/Info                            : UTF-8 Plain Text
Title                                    : Sub Regular
Language                                 : English
Default                                  : No
Forced                                   : No
DURATION                                 : 01:44:13.581000000
NUMBER_OF_FRAMES                         : 1130
NUMBER_OF_BYTES                          : 34139
_STATISTICS_WRITING_APP                  : mkvmerge v9.3.1 ('Mask Machine') 64bit
_STATISTICS_WRITING_DATE_UTC             : 2016-08-08 01:33:17
_STATISTICS_TAGS                         : BPS DURATION NUMBER_OF_FRAMES NUMBER_OF_BYTES
Menu
00:00:00.000                             : :Opening Credits / A Shooting Star
00:09:19.725                             : :Electrical Marvel
00:19:15.070                             : :"Run, Dorothy, Run!'
00:28:38.883                             : :The Yellow Brick Road
00:40:39.228                             : :Princess Mombi
00:46:21.445                             : :Jack Pumpkinhead
00:54:17.379                             : :Powder Of Life
01:04:40.376                             : :Crash Landing
01:12:35.392                             : :Three Chances
01:26:24.429                             : :Scarecrow
01:34:16.442                             : :Emerald City
01:45:06.925                             : :End Credits