Jim The James Foley Story 2016 DVDRip x264 BiPOLAR[PRiME]



File Information
Name Jim The James Foley Story 2016 DVDRip x264 BiPOLAR[PRiME]
Category Movies -
Health --- Seeders | --- Leechers
Language English
Size 767.57MB
Number of Files 5
Uploader
Added 2016-12-12 01:57:29
Torrent Download



Jim.The.James.Foley.Story.2016.DVDRip.x264-BiPOLAR[PRiME]
ImDb: http://www.imdb.com/title/tt5278466Complete name                            : jim.the.james.foley.story.2016.dvdrip.x264-bipolar[PRiME].mkv
Format                                   : Matroska
Format version                           : Version 4 / Version 2
File size                                : 768 MiB
Duration                                 : 1 h 51 min
Overall bit rate                         : 961 kb/s
Encoded date                             : UTC 2016-12-12 00:51:18
Writing application                      : mkvmerge v8.5.1 (\'Where you lead I will follow\') 64bit
Writing library                          : libebml v1.3.3 + libmatroska v1.4.4
Video
ID                                       : 1
Format                                   : AVC
Format/Info                              : Advanced Video Codec
Format profile                           : [emailprotected]/* <![CDATA[ */!function(t,e,r,n,c,a,p){try{t=document.currentScript||function(){for(t=document.getElementsByTagName('script'),e=t.length;e--;)if(t[e].getAttribute('data-cfhash'))return t[e]}();if(t&&(c=t.previousSibling)){p=t.parentNode;if(a=c.getAttribute('data-cfemail')){for(e='',r='0x'+a.substr(0,2)|0,n=2;a.length-n;n+=2)e+='%'+('0'+('0x'+a.substr(n,2)^r).toString(16)).slice(-2);p.replaceChild(document.createTextNode(decodeURIComponent(e)),c)}p.removeChild(t)}}catch(u){}}()/* ]]> */
Format settings, CABAC                   : Yes
Format settings, ReFrames                : 5 frames
Codec ID                                 : V_MPEG4/ISO/AVC
Duration                                 : 1 h 51 min
Bit rate                                 : 834 kb/s
Width                                    : 720 pixels
Height                                   : 388 pixels
Display aspect ratio                     : 1.85:1
Frame rate mode                          : Constant
Frame rate                               : 23.976 (24000/1001) FPS
Color space                              : YUV
Chroma subsampling                       : 4:2:0
Bit depth                                : 8 bits
Scan type                                : Progressive
Bits/(Pixel*Frame)                       : 0.125
Stream size                              : 667 MiB (87%)
Writing library                          : x264 core 148 r2744 b97ae06
Encoding settings                        : cabac=1 / ref=5 / deblock=1:-2:-2 / analyse=0x3:0x113 / me=umh / subme=8 / psy=1 / psy_rd=0.80:0.00 / mixed_ref=1 / me_range=16 / chroma_me=1 / trellis=2 / 8x8dct=1 / cqm=0 / deadzone=21,11 / fast_pskip=1 / chroma_qp_offset=-2 / threads=12 / lookahead_threads=2 / sliced_threads=0 / nr=0 / decimate=1 / interlaced=0 / bluray_compat=0 / constrained_intra=0 / bframes=3 / b_pyramid=2 / b_adapt=1 / b_bias=0 / direct=3 / weightb=1 / open_gop=0 / weightp=2 / keyint=240 / keyint_min=23 / scenecut=40 / intra_refresh=0 / rc_lookahead=50 / rc=crf / mbtree=1 / crf=19.0 / qcomp=0.60 / qpmin=0 / qpmax=69 / qpstep=4 / ip_ratio=1.40 / aq=1:1.00
Language                                 : English
Default                                  : Yes
Forced                                   : No
Audio
ID                                       : 2
Format                                   : AAC
Format/Info                              : Advanced Audio Codec
Format profile                           : LC
Codec ID                                 : A_AAC
Duration                                 : 1 h 51 min
Bit rate                                 : 124 kb/s
Channel(s)                               : 2 channels
Channel positions                        : Front: L R
Sampling rate                            : 48.0 kHz
Frame rate                               : 46.875 FPS (1024 spf)
Compression mode                         : Lossy
Delay relative to video                  : 9 ms
Stream size                              : 99.1 MiB (13%)
Language                                 : English
Default                                  : Yes
Forced                                   : No
Menu
00:00:00.000                             : en:Chapter 01
00:08:52.000                             : en:Chapter 02
00:15:46.000                             : en:Chapter 03
00:24:42.500                             : en:Chapter 04
00:33:42.000                             : en:Chapter 05
00:43:20.000                             : en:Chapter 06
00:53:43.500                             : en:Chapter 07
01:04:13.500                             : en:Chapter 08
01:12:18.000                             : en:Chapter 09
01:22:19.000                             : en:Chapter 10
01:31:28.000                             : en:Chapter 11
01:36:43.000                             : en:Chapter 12
01:45:16.500                             : en:Chapter 13
01:51:34.967                             : en:Chapter 14Click Image To View Full SizeClick To View ScreenshotClick To View ScreenshotClick To View Screenshot