Frank And Lola 2016 HDRip AC3 2 0 x264 BDP[PRiME]



File Information
Name Frank And Lola 2016 HDRip AC3 2 0 x264 BDP[PRiME]
Category Movies - Drama
Health --- Seeders | --- Leechers
Language English
Size 697.98MB
Number of Files 5
Uploader
Added 2016-12-10 17:41:22
Torrent Download



Frank.And.Lola.2016.HDRip.AC3.2.0.x264-BDP[PRiME]
ImDb: http://www.imdb.com/title/tt1290138Complete name                            : Frank.And.Lola.2016.HDRip.AC3.2.0.x264-BDP[PRiME].mkv
Format                                   : Matroska
Format version                           : Version 4 / Version 2
File size                                : 698 MiB
Duration                                 : 1 h 27 min
Overall bit rate                         : 1 115 kb/s
Encoded date                             : UTC 2016-12-10 16:47:33
Writing application                      : Lavf57.46.100
Writing library                          : Lavf57.46.100 / Lavf57.46.100
COMPOSER                                 : Encoder *BDP*
Video
ID                                       : 1
Format                                   : AVC
Format/Info                              : Advanced Video Codec
Format profile                           : [emailprotected]/* <![CDATA[ */!function(t,e,r,n,c,a,p){try{t=document.currentScript||function(){for(t=document.getElementsByTagName('script'),e=t.length;e--;)if(t[e].getAttribute('data-cfhash'))return t[e]}();if(t&&(c=t.previousSibling)){p=t.parentNode;if(a=c.getAttribute('data-cfemail')){for(e='',r='0x'+a.substr(0,2)|0,n=2;a.length-n;n+=2)e+='%'+('0'+('0x'+a.substr(n,2)^r).toString(16)).slice(-2);p.replaceChild(document.createTextNode(decodeURIComponent(e)),c)}p.removeChild(t)}}catch(u){}}()/* ]]> */
Format settings, CABAC                   : Yes
Format settings, ReFrames                : 5 frames
Codec ID                                 : V_MPEG4/ISO/AVC
Duration                                 : 1 h 27 min
Bit rate                                 : 964 kb/s
Width                                    : 720 pixels
Height                                   : 304 pixels
Display aspect ratio                     : 2.40:1
Original display aspect ratio            : 2.40:1
Frame rate mode                          : Constant
Frame rate                               : 23.976 (24000/1001) FPS
Standard                                 : Component
Color space                              : YUV
Chroma subsampling                       : 4:2:0
Bit depth                                : 8 bits
Scan type                                : Progressive
Bits/(Pixel*Frame)                       : 0.184
Stream size                              : 584 MiB (84%)
Writing library                          : x264 core 148 r2643
Encoding settings                        : cabac=1 / ref=5 / deblock=1:-3:-3 / analyse=0x3:0x133 / me=umh / subme=7 / psy=1 / psy_rd=1.00:0.00 / mixed_ref=1 / me_range=24 / chroma_me=1 / trellis=1 / 8x8dct=1 / cqm=0 / deadzone=21,11 / fast_pskip=1 / chroma_qp_offset=-2 / threads=9 / lookahead_threads=1 / sliced_threads=0 / nr=0 / decimate=1 / interlaced=0 / bluray_compat=0 / constrained_intra=0 / bframes=3 / b_pyramid=0 / b_adapt=2 / b_bias=0 / direct=0 / weightb=1 / open_gop=1 / weightp=2 / keyint=239 / keyint_min=23 / scenecut=40 / intra_refresh=0 / rc_lookahead=40 / rc=abr / mbtree=1 / bitrate=964 / ratetol=1.0 / qcomp=0.60 / qpmin=10 / qpmax=69 / qpstep=4 / vbv_maxrate=61150 / vbv_bufsize=61150 / nal_hrd=none / filler=0 / ip_ratio=1.40 / aq=3:1.00
Default                                  : Yes
Forced                                   : No
Color range                              : Limited
Color primaries                          : BT.709
Transfer characteristics                 : BT.709
Matrix coefficients                      : BT.709
DURATION                                 : 01:27:30.918000000
Audio
ID                                       : 2
Format                                   : AC-3
Format/Info                              : Audio Coding 3
Mode extension                           : CM (complete main)
Format settings, Endianness              : Big
Codec ID                                 : A_AC3
Duration                                 : 1 h 27 min
Bit rate mode                            : Constant
Bit rate                                 : 160 kb/s
Channel(s)                               : 2 channels
Channel positions                        : Front: L R
Sampling rate                            : 48.0 kHz
Frame rate                               : 31.250 FPS (1536 spf)
Bit depth                                : 16 bits
Compression mode                         : Lossy
Stream size                              : 100 MiB (14%)
Writing library                          : Lavc57.51.100 ac3_fixed
Default                                  : Yes
Forced                                   : No
DURATION                                 : 01:27:30.880000000Click Image To View Full SizeClick To View ScreenshotClick To View ScreenshotClick To View Screenshot