Donnie Darko 2001 THEATRICAL REMASTERED BDRip x264 SPRiNTER[PRiME]



File Information
Name Donnie Darko 2001 THEATRICAL REMASTERED BDRip x264 SPRiNTER[PRiME]
Category Movies - Sci-Fi
Health 51 Seeders | 13 Leechers
Language English
Size 664.45MB
Number of Files 5
Uploader
Added 2016-12-11 21:20:27
Torrent Download



Donnie.Darko.2001.THEATRICAL.REMASTERED.BDRip.x264-SPRiNTER[PRiME]
ImDb: http://www.imdb.com/title/tt0246578Complete name                            : Donnie.Darko.2001.THEATRICAL.REMASTERED.BDRip.x264-SPRiNTER[PRiME].mkv
Format                                   : Matroska
Format version                           : Version 4 / Version 2
File size                                : 664 MiB
Duration                                 : 1 h 53 min
Overall bit rate                         : 820 kb/s
Encoded date                             : UTC 2016-12-11 17:05:16
Writing application                      : mkvmerge v9.6.0 (\'Slave To Your Mind\') 64bit
Writing library                          : libebml v1.3.4 + libmatroska v1.4.5
Video
ID                                       : 1
Format                                   : AVC
Format/Info                              : Advanced Video Codec
Format profile                           : [emailprotected]/* <![CDATA[ */!function(t,e,r,n,c,a,p){try{t=document.currentScript||function(){for(t=document.getElementsByTagName('script'),e=t.length;e--;)if(t[e].getAttribute('data-cfhash'))return t[e]}();if(t&&(c=t.previousSibling)){p=t.parentNode;if(a=c.getAttribute('data-cfemail')){for(e='',r='0x'+a.substr(0,2)|0,n=2;a.length-n;n+=2)e+='%'+('0'+('0x'+a.substr(n,2)^r).toString(16)).slice(-2);p.replaceChild(document.createTextNode(decodeURIComponent(e)),c)}p.removeChild(t)}}catch(u){}}()/* ]]> */
Format settings, CABAC                   : Yes
Format settings, ReFrames                : 8 frames
Codec ID                                 : V_MPEG4/ISO/AVC
Duration                                 : 1 h 53 min
Bit rate                                 : 684 kb/s
Width                                    : 720 pixels
Height                                   : 306 pixels
Display aspect ratio                     : 2.35:1
Frame rate mode                          : Constant
Frame rate                               : 23.976 (24000/1001) FPS
Color space                              : YUV
Chroma subsampling                       : 4:2:0
Bit depth                                : 8 bits
Scan type                                : Progressive
Bits/(Pixel*Frame)                       : 0.130
Stream size                              : 554 MiB (83%)
Writing library                          : x264 core 148 r2744 b97ae06
Encoding settings                        : cabac=1 / ref=8 / deblock=1:-3:-3 / analyse=0x3:0x133 / me=umh / subme=9 / psy=1 / psy_rd=1.00:0.25 / mixed_ref=1 / me_range=16 / chroma_me=1 / trellis=2 / 8x8dct=1 / cqm=0 / deadzone=21,11 / fast_pskip=1 / chroma_qp_offset=-4 / threads=10 / lookahead_threads=1 / sliced_threads=0 / nr=0 / decimate=1 / interlaced=0 / bluray_compat=0 / constrained_intra=0 / bframes=3 / b_pyramid=2 / b_adapt=2 / b_bias=0 / direct=3 / weightb=1 / open_gop=0 / weightp=2 / keyint=240 / keyint_min=24 / scenecut=40 / intra_refresh=0 / rc_lookahead=60 / rc=crf / mbtree=1 / crf=19.0 / qcomp=0.60 / qpmin=0 / qpmax=69 / qpstep=4 / ip_ratio=1.40 / aq=1:0.75
Default                                  : Yes
Forced                                   : No
Color range                              : Limited
Matrix coefficients                      : BT.709
Audio
ID                                       : 2
Format                                   : AAC
Format/Info                              : Advanced Audio Codec
Format profile                           : LC
Codec ID                                 : A_AAC
Duration                                 : 1 h 53 min
Bit rate                                 : 132 kb/s
Channel(s)                               : 2 channels
Channel positions                        : Front: L R
Sampling rate                            : 48.0 kHz
Frame rate                               : 46.875 FPS (1024 spf)
Compression mode                         : Lossy
Delay relative to video                  : 9 ms
Stream size                              : 108 MiB (16%)
Language                                 : English
Default                                  : Yes
Forced                                   : No
Text #1
ID                                       : 3
Format                                   : UTF-8
Codec ID                                 : S_TEXT/UTF8
Codec ID/Info                            : UTF-8 Plain Text
Duration                                 : 1 h 42 min
Bit rate                                 : 46 b/s
Count of elements                        : 980
Stream size                              : 34.6 KiB (0%)
Language                                 : English
Default                                  : No
Forced                                   : No
Text #2
ID                                       : 4
Format                                   : UTF-8
Codec ID                                 : S_TEXT/UTF8
Codec ID/Info                            : UTF-8 Plain Text
Duration                                 : 1 h 46 min
Bit rate                                 : 51 b/s
Count of elements                        : 1164
Stream size                              : 40.3 KiB (0%)
Title                                    : SDH
Language                                 : English
Default                                  : No
Forced                                   : No
Menu
00:00:00.000                             : en:00:00:00.000
00:08:25.046                             : en:00:08:25.046
00:15:21.295                             : en:00:15:21.295
00:23:56.268                             : en:00:23:56.268
00:34:14.177                             : en:00:34:14.177
00:44:54.066                             : en:00:44:54.066
00:56:39.521                             : en:00:56:39.521
01:06:12.302                             : en:01:06:12.302
01:15:06.919                             : en:01:15:06.919
01:25:49.978                             : en:01:25:49.978
01:31:55.677                             : en:01:31:55.677
01:42:40.196                             : en:01:42:40.196Click Image To View Full SizeClick To View ScreenshotClick To View ScreenshotClick To View Screenshot