Dangal 2016 Hindi 1CD Desi Pre DvDRip x264 AC3 MAXPRO



File Information
Name Dangal 2016 Hindi 1CD Desi Pre DvDRip x264 AC3 MAXPRO
Category Movies - Categories > Movies torrents > Bollywood/Desi torrents
Health 3880 Seeders | 6550 Leechers
Language Hindi
Size 696.84MB
Number of Files 2
Uploader
Added 2016-12-24 02:33:43
Torrent Download





Format                                   : Matroska
Format version                           : Version 2
File size                                : 697 MiB
Duration                                 : 2h 32mn
Overall bit rate                         : 639 Kbps
Encoded date                             : UTC 2016-12-23 17:21:04
Writing application                      : mkvmerge v8.5.2 ('Crosses') 32bit
Writing library                          : libebml v1.3.3 + libmatroska v1.4.4

Video
ID                                       : 1
Format                                   : AVC
Format/Info                              : Advanced Video Codec
Format profile                           : High@L3
Format settings, CABAC                   : Yes
Format settings, ReFrames                : 4 frames
Codec ID                                 : V_MPEG4/ISO/AVC
Duration                                 : 2h 32mn
Bit rate                                 : 573 Kbps
Width                                    : 720 pixels
Height                                   : 320 pixels
Display aspect ratio                     : 2.25:1
Frame rate mode                          : Constant
Frame rate                               : 25.000 fps
Color space                              : YUV
Chroma subsampling                       : 4:2:0
Bit depth                                : 8 bits
Scan type                                : Progressive
Bits/(Pixel*Frame)                       : 0.099
Stream size                              : 613 MiB (88%)
Writing library                          : x264 core 148 r2638 7599210

Audio
ID                                       : 2
Format                                   : AC-3
Format/Info                              : Audio Coding 3
Mode extension                           : CM (complete main)
Format settings, Endianness              : Big
Codec ID                                 : A_AC3
Duration                                 : 2h 32mn
Bit rate mode                            : Constant
Bit rate                                 : 64.0 Kbps
Channel(s)                               : 2 channels
Channel positions                        : Front: L R
Sampling rate                            : 48.0 KHz
Compression mode                         : Lossy
Stream size                              : 69.8 MiB (10%)
Language                                 : English
Default                                  : Yes
Forced                                   : No
Source: Hon3yHD