Conan 2016 12 08 T J Miller 720p HDTV x264 BRISK[PRiME]



File Information
Name Conan 2016 12 08 T J Miller 720p HDTV x264 BRISK[PRiME]
Category TV - Other
Health 139 Seeders | 109 Leechers
Language English
Size 1.03GB
Number of Files 5
Uploader
Added 2016-12-09 05:13:36
Torrent Download

Conan.2016.12.08.T.J.Miller.720p.HDTV.x264-BRISK[PRiME]Complete name : Conan.2016.12.08.T.J.Miller.720p.HDTV.x264-BRISK[PRiME].mkv Format : Matroska Format version : Version 2 File size : 1.03 GiB Duration : 42 min 0 s Overall bit rate : 3 520 kb/s Writing application : x264.exe Writing library : mkv2rls x264-tv version built on 2016.10.12 Video ID : 1 Format : AVC Format/Info : Advanced Video Codec Format profile : [emailprotected]/* */ Format settings, CABAC : Yes Format settings, ReFrames : 5 frames Codec ID : V_MPEG4/ISO/AVC Duration : 42 min 0 s Bit rate : 3 001 kb/s Width : 1 280 pixels Height : 720 pixels Display aspect ratio : 16:9 Frame rate mode : Constant Frame rate : 59.940 (60000/1001) FPS Color space : YUV Chroma subsampling : 4:2:0 Bit depth : 8 bits Scan type : Progressive Bits/(Pixel*Frame) : 0.054 Stream size : 902 MiB (85%) Writing library : x264 core 148 r2744 b97ae06 Encoding settings : cabac=1 / ref=5 / deblock=1:0:0 / analyse=0x3:0x113 / me=hex / subme=8 / psy=1 / psy_rd=1.00:0.00 / mixed_ref=1 / me_range=16 / chroma_me=1 / trellis=2 / 8x8dct=1 / cqm=0 / deadzone=21,11 / fast_pskip=1 / chroma_qp_offset=-2 / threads=22 / lookahead_threads=3 / sliced_threads=0 / nr=0 / decimate=1 / interlaced=0 / bluray_compat=0 / constrained_intra=0 / bframes=3 / b_pyramid=2 / b_adapt=1 / b_bias=0 / direct=3 / weightb=1 / open_gop=0 / weightp=2 / keyint=250 / keyint_min=25 / scenecut=40 / intra_refresh=0 / rc_lookahead=50 / rc=crf / mbtree=1 / crf=18.0 / qcomp=0.60 / qpmin=0 / qpmax=69 / qpstep=4 / ip_ratio=1.40 / aq=1:1.00 Language : English Default : Yes Forced : No Audio ID : 2 Format : AC-3 Format/Info : Audio Coding 3 Mode extension : CM (complete main) Format settings, Endianness : Big Codec ID : A_AC3 Duration : 42 min 0 s Bit rate mode : Constant Bit rate : 448 kb/s Channel(s) : 6 channels Channel positions : Front: L C R, Side: L R, LFE Sampling rate : 48.0 kHz Frame rate : 31.250 FPS (1536 spf) Compression mode : Lossy Stream size : 135 MiB (13%) Language : English Default : Yes Forced : No Text ID : 3 Format : UTF-8 Codec ID : S_TEXT/UTF8 Codec ID/Info : UTF-8 Plain Text Title : English Language : English Default : No Forced : NoClick Image To View Full SizeClick To View ScreenshotClick To View ScreenshotClick To View Screenshot