Benche Thakar Gaan 2016 1080p WebHD Rip x264 AAC Subs 5GB DDR



File Information
Name Benche Thakar Gaan 2016 1080p WebHD Rip x264 AAC Subs 5GB DDR
Category Movies - Categories > Movies torrents > Bollywood/Desi torrents
Health 21 Seeders | 92 Leechers
Language N/A
Size 5.00GB
Number of Files 1
Uploader
Added 2016-12-24 03:41:01   |   Last edit: 2016-12-24 03:44:04 by TeamDDR
Torrent Download





WebHD Rip - A DDR Exclusive


Benche Thakar Gaan (Song of Life) -(2016)
(A film by Abhijit Guha & Sudeshna Roy)

Bangla - WebHD.Rip - 1080p - 1920x816 (2.35:1)- 5.00 GB- x.264.AAC - 2 Hrs:03 Min

















The pictures are Thumbnails. Please click on the image to see it in original size.
Please Read Uploader's Notes Below



General
Format: Matroska
Format version: Version 4 / Version 2
File size: 5.00 GiB
Duration: 2 h 03 min
Overall bit rate mode: Variable
Overall bit rate: 5821 kb/s

Video
Format Profile: High@4.1
Codec ID: V_MPEG4/ISO/AVC
Duration: 2 h 03 min
Bit rate mode: Variable
Bit rate: 5690 kb/s
Maximum bit rate: 62.5 Mb/s
Width: 1 920 pixels
Height: 816 pixels
Display aspect ratio: 2.35:1
Frame rate mode: Constant
Frame rate: 23.976 FPS
Color space: YUV
Chroma subsampling: 4:2:0
Bit depth: 8 bits
Scan type: Progressive
Bits/(Pixel*Frame): 0.151
Stream size: 4.89 GiB (91%)
Writing library: x264 core 148 r2721 72d53ab
Color Primaries: BT.709

Audio
Language: Bengali
Format: AAC
Duration: 2 h 03 min
Bit rate: 128 kb/s
Channel(s): 2 channels
Channel positions: Front: Front: L R
Sampling rate: 48.0 kHz / 24 kHz
Frame rate: 23.438 FPS (1024 spf)
Compression mode: Lossy
Delay relative to video: 31 ms
Stream size: 415 MiB (6%)
Default: Yes
Forced : No

Chapters & Subtitles
Chapters: None
Subtitles: Hardcoded

Starring
Gargee Roychowdhury; Tota Roychowdhury, Paran Bandyopadhyay, Dwijen Banerjee, Ardhendu Banerjee, Pradip Mukherjee, Alokananda Roy, Anamika Saha, Sohag Sen, Indrani Bhattacharya,

Technical Team
Director: Abhijit Guha & Sudeshna Roy; Producer: Pradip Churiwal; Music: Raja Narayan Deb; DOP: Pravatendu Mondal; Editor: Dujoy Datta Ray: Sound: Tito;

Ripped By: Udbuddho


Sample (2 minutes): Download from here