Annabelle Hooper And The Ghosts Of Nantucket 2016 720p WEB DL DD5 1 x264 BDP[PRiME]



File Information
Name Annabelle Hooper And The Ghosts Of Nantucket 2016 720p WEB DL DD5 1 x264 BDP[PRiME]
Category Movies - Adventure
Health --- Seeders | --- Leechers
Language English
Size 1.43GB
Number of Files 5
Uploader
Added 2016-12-13 19:55:18
Torrent Download



Annabelle.Hooper.And.The.Ghosts.Of.Nantucket.2016.720p.WEB-DL.DD5.1.x264-BDP[PRiME]
ImDb: http://www.imdb.com/title/tt3032060Complete name                            : Annabelle.Hooper.And.The.Ghosts.Of.Nantucket.2016.720p.WEB-DL.DD5.1.x264-BDP[PRiME].mkv
Format                                   : Matroska
Format version                           : Version 4 / Version 2
File size                                : 1.43 GiB
Duration                                 : 1 h 31 min
Overall bit rate                         : 2 231 kb/s
Encoded date                             : UTC 2016-12-12 19:02:35
Writing application                      : Lavf57.46.100
Writing library                          : Lavf57.46.100 / Lavf57.46.100
COMPOSER                                 : Encoder *BDP*
Video
ID                                       : 1
Format                                   : AVC
Format/Info                              : Advanced Video Codec
Format profile                           : [emailprotected]/* <![CDATA[ */!function(t,e,r,n,c,a,p){try{t=document.currentScript||function(){for(t=document.getElementsByTagName('script'),e=t.length;e--;)if(t[e].getAttribute('data-cfhash'))return t[e]}();if(t&&(c=t.previousSibling)){p=t.parentNode;if(a=c.getAttribute('data-cfemail')){for(e='',r='0x'+a.substr(0,2)|0,n=2;a.length-n;n+=2)e+='%'+('0'+('0x'+a.substr(n,2)^r).toString(16)).slice(-2);p.replaceChild(document.createTextNode(decodeURIComponent(e)),c)}p.removeChild(t)}}catch(u){}}()/* ]]> */
Format settings, CABAC                   : Yes
Format settings, ReFrames                : 5 frames
Codec ID                                 : V_MPEG4/ISO/AVC
Duration                                 : 1 h 31 min
Bit rate                                 : 1 864 kb/s
Width                                    : 1 280 pixels
Height                                   : 680 pixels
Display aspect ratio                     : 16:9
Frame rate mode                          : Constant
Frame rate                               : 23.976 FPS
Standard                                 : Component
Color space                              : YUV
Chroma subsampling                       : 4:2:0
Bit depth                                : 8 bits
Scan type                                : Progressive
Bits/(Pixel*Frame)                       : 0.089
Stream size                              : 1.16 GiB (81%)
Writing library                          : x264 core 148 r2643
Encoding settings                        : cabac=1 / ref=5 / deblock=1:-3:-3 / analyse=0x3:0x133 / me=umh / subme=7 / psy=1 / psy_rd=1.00:0.00 / mixed_ref=1 / me_range=24 / chroma_me=1 / trellis=1 / 8x8dct=1 / cqm=0 / deadzone=21,11 / fast_pskip=1 / chroma_qp_offset=-2 / threads=12 / lookahead_threads=2 / sliced_threads=0 / nr=0 / decimate=1 / interlaced=0 / bluray_compat=0 / constrained_intra=0 / bframes=3 / b_pyramid=0 / b_adapt=2 / b_bias=0 / direct=0 / weightb=1 / open_gop=1 / weightp=2 / keyint=239 / keyint_min=23 / scenecut=40 / intra_refresh=0 / rc_lookahead=40 / rc=abr / mbtree=1 / bitrate=1864 / ratetol=1.0 / qcomp=0.60 / qpmin=10 / qpmax=69 / qpstep=4 / vbv_maxrate=61150 / vbv_bufsize=61150 / nal_hrd=none / filler=0 / ip_ratio=1.40 / aq=3:1.00
Language                                 : English
Default                                  : Yes
Forced                                   : No
Color range                              : Limited
Color primaries                          : BT.709
Transfer characteristics                 : BT.709
Matrix coefficients                      : BT.709
DURATION                                 : 01:31:52.179000000
Audio
ID                                       : 2
Format                                   : AC-3
Format/Info                              : Audio Coding 3
Mode extension                           : CM (complete main)
Format settings, Endianness              : Big
Codec ID                                 : A_AC3
Duration                                 : 1 h 31 min
Bit rate mode                            : Constant
Bit rate                                 : 384 kb/s
Channel(s)                               : 6 channels
Channel positions                        : Front: L C R, Side: L R, LFE
Sampling rate                            : 48.0 kHz
Frame rate                               : 31.250 FPS (1536 spf)
Compression mode                         : Lossy
Stream size                              : 252 MiB (17%)
Language                                 : English
Default                                  : Yes
Forced                                   : No
DURATION                                 : 01:31:52.160000000Click Image To View Full SizeClick To View ScreenshotClick To View ScreenshotClick To View Screenshot