Alice Through the Looking Glass 2016 Unmarked TC XVID AC3 HQ Hive CM8



File Information
Name Alice Through the Looking Glass 2016 Unmarked TC XVID AC3 HQ Hive CM8
Category Movies - Movies
Health 316 Seeders | 131 Leechers
Language English
Size 1.59GB
Number of Files 4
Uploader
Added 2016-05-31 09:52:58
Torrent Download

http://www.imdb.com/title/tt2567026/


Alice returns to the whimsical world of Wonderland and travels back in time to save the Mad Hatter.

Director: James Bobin
Writers: Linda Woolverton (screenplay), Lewis Carroll (books)
Stars: Mia Wasikowska, Johnny Depp, Helena Bonham Carter
Genres: Adventure | Family | Fantasy
Country: USA
Language: English


Alice.Through.the.Looking.Glass.2016.Unmarked.TC.XVID.AC3.HQ.Hive-CM8

Thx Hive

CM8 Doing It Right The First Time

Sources:

Video: Unmarked 720p Chinese Telecine
Audio: English Studio Audio,came with the Chinese Telecine
thx


Notes:
Another special Encode and first on the net completely unmarked,
tried to get a source file that doesnt have watermarkings, took me a day longer to get, but the result is excellent,
its a masterpiece from this source. Have done 720p and avi for this,looks and sounds perfect a real cinemafeeling.
Quality is tested and optimized to look perfect on a 85" 4K TV.


Encode:
Quality is same as on Angry birds, as perfect as it can be
The Chinese telecine needed some work,fixed brightness,contrast,and colours.
Nothing is cut from the movie

StudioAudio was great and already lipsynced,lol

Removed cinavia too on this one,it should work

got very nice and will do me till retail
enjoy

PS: still waiting for the unmarked TC Xmen,cpl days left, lets wait and see

Video: 720x400 @bitrate 1700 2pass
Audio: English Studio AC3 2.0
Sample: yes included


http://www.imdb.com/title/tt2567026/


General
Complete name : Alice.Through.the.Looking.Glass.2016.Unmarked.TC.XVID.AC3.HQ.Hive-CM8.avi
Format : AVI
Format/Info : Audio Video Interleave
File size : 1.55 GiB
Duration : 1h 52mn
Overall bit rate : 1 965 Kbps
Writing application : Nandub v1.0rc2
Writing library : Nandub build 1853/release

Video
ID : 0
Format : MPEG-4 Visual
Format profile : Advanced [email protected]/* <![CDATA[ */!function(t,e,r,n,c,a,p){try{t=document.currentScript||function(){for(t=document.getElementsByTagName('script'),e=t.length;e--;)if(t[e].getAttribute('data-cfhash'))return t[e]}();if(t&&(c=t.previousSibling)){p=t.parentNode;if(a=c.getAttribute('data-cfemail')){for(e='',r='0x'+a.substr(0,2)|0,n=2;a.length-n;n+=2)e+='%'+('0'+('0x'+a.substr(n,2)^r).toString(16)).slice(-2);p.replaceChild(document.createTextNode(decodeURIComponent(e)),c)}p.removeChild(t)}}catch(u){}}()/* ]]> */
Format settings, BVOP : 2
Format settings, QPel : Yes
Format settings, GMC : No warppoints
Format settings, Matrix : Default (H.263)
Muxing mode : Packed bitstream
Codec ID : XVID
Codec ID/Hint : XviD
Duration : 1h 52mn
Bit rate : 1 697 Kbps
Width : 720 pixels
Height : 400 pixels
Display aspect ratio : 16:9
Frame rate : 29.970 fps
Color space : YUV
Chroma subsampling : 4:2:0
Bit depth : 8 bits
Scan type : Progressive
Compression mode : Lossy
Bits/(Pixel*Frame) : 0.197
Stream size : 1.34 GiB (86%)
Writing library : XviD 1.2.1 (UTC 2008-12-04)

Audio
ID : 1
Format : AC-3
Format/Info : Audio Coding 3
Mode extension : CM (complete main)
Format settings, Endianness : Big
Codec ID : 2000
Duration : 1h 52mn
Bit rate mode : Constant
Bit rate : 256 Kbps
Channel(s) : 2 channels
Channel positions : Front: L R
Sampling rate : 48.0 KHz
Bit depth : 16 bits
Compression mode : Lossy
Stream size : 207 MiB (13%)
Alignment : Split accross interleaves
Interleave, duration : 33 ms (1.00 video frame)
Interleave, preload duration : 500 ms